Details for this torrent 

Lost.S06E06.HDTV.XviD-2HD-[tracker.BTARENA.org].avi
Type:
Video > TV shows
Files:
3
Size:
358.04 MiB (375435331 Bytes)
Uploaded:
2010-03-03 04:00:16 GMT
By:
AiTB VIP
Seeders:
0
Leechers:
0
Comments
7  

Info Hash:
7593CB54FA9503587B7165B49AFAAD7F65E99050




   
info / links

http://www.btarena.org/tv/lost-s06e06-hdtv-xvid-2hd
lost.s6e6.hdtv.xvid-2hd-BTARENA.org.avi
Video
ID                               : 0
Format                           : MPEG-4 Visual
Format profile                   : Advanced [email protected]
Format settings, BVOP            : Yes
Format settings, QPel            : No
Format settings, GMC             : No warppoints
Format settings, Matrix          : Default (H.263)
Muxing mode                      : Packed bitstream
Codec ID                         : XVID
Codec ID/Hint                    : XviD
Duration                         : 41mn 17s
Bit rate                         : 1 038 Kbps
Width                            : 624 pixels
Height                           : 352 pixels
Display aspect ratio             : 16:9
Frame rate                       : 23.976 fps
Resolution                       : 8 bits
Colorimetry                      : 4:2:0
Scan type                        : Progressive
Bits/(Pixel*Frame)               : 0.197
Stream size                      : 307 MiB (88%)
Writing library                  : XviD 1.2.1 (UTC 2008-12-04)
Audio
ID                               : 1
Format                           : MPEG Audio
Format version                   : Version 1
Format profile                   : Layer 3
Mode                             : Joint stereo
Format_Settings_ModeExtension    : MS Stereo
Codec ID                         : 55
Codec ID/Hint                    : MP3
Duration                         : 41mn 17s
Bit rate mode                    : Variable
Bit rate                         : 132 Kbps
Nominal bit rate                 : 128 Kbps
Channel(s)                       : 2 channels
Sampling rate                    : 48.0 KHz
Stream size                      : 38.9 MiB (11%)

Comments

Now This 1 Will Be The Right 1 EVERYTIME !!!

TY AiTB your the man
tnks man !
UGH Assholes seed when you're done. I've got 6 100%ers who just stopped transmitting when they hit 100. Now my DL is 73 kb/s when my upload is 351. Not cool.
Thx AiTB 4 sharing!
Please don't try to chat about the storyline of LOST here. Use some of the dedicated forums for that -- so I can read AFTER watching the episode. . . . . And thanks AITB for the upload.
Thanks